Buscador de cine clasico

Él ( 1952 ) - Luis Buñuel

Ver en linea / Watch On Line  Download / Descargar

Sinopsis:
Él - 1952  | Luis Buñuel
Él - 1952

Ficha de la película
DURACIÓN DEL FILM: 92 min.
PAÍS: México
DIRECCIÓN: Luis Buñuel
GUIONISTA(s): Luis Buñuel & Luis Alcoriza (Novela: Mercedes Pinto)
MÚSICA: Luis Hernández Bretón
FOTOGRAFÍA: Gabriel Figueroa (B&W)
INTERPRETES: Arturo de Córdova, Delia Garcés, Aurora Walker, Carlos Martínez Baena, Manuel Dondé, Rafael Banquells, Fernando Casanova, Luis Beristaín
PRODUCTORA: Nacional Films
GÉNERO: Drama. Romance | Celos. Melodrama

Sinopsis
Francisco Galván de Montemayor, un hombre adinerado de apariencia tranquila, conservador, religioso y virgen, como cada Jueves Santo asiste a la ceremonia del mandatum, el lavatorio de pies que el sacerdote efectúa con singular delectación. Al ver los sensuales pies de una joven sentada en primera fila se queda prendado de su serena belleza. Francisco logra averiguar que la mujer de sus sueños se llama Gloria y va a contraer matrimonio con un viejo amigo suyo. Tras invitarlos a una fiesta en su mansión, conquista a Gloria y se casa con ella. A partir de la misma noche de bodas, los celos lo transforman en un ser obsesivo y paranoico, que sólo ve el asesinato y la mutilación como una solución a su locura

CRITICAS: El retrato surrealista de un acomodado y devoto hombre de mediana edad, camino de la locura por sus celos patológicos y sus aficiones enfermizas por los rituales religiosos, fue unánimemente aclamado por la crítica, que alabó la irónica dramatización con que Buñuel muestra los efectos de las obsesiones sobre el matrimonio y la sexualidad. (FILMAFFINITY)
----------------------------------------
"Desquiciado melodrama, una película brutal, desesperada (...) Buñuel ahonda en los abismos humanos y crea una catarata de cine." (Miguel Ángel Palomo: Diario El País)

Imagenes / Capturas

MEDIAINFO DEL ARCHIVO:

Él - (1952)(Castellano+Subs+Por)(Luis Buñuel).Tv-Rip.Mp3.By.Odinko.(CineClasicoConecta2).avi
Format : AVI
Format/Info : Audio Video Interleave
File size : 1.31 GiB
Duration : 1h 27mn
Overall bit rate : 2 141 Kbps

Video
ID : 0
Format : MPEG-4 Visual
Format settings, BVOP : Yes
Format settings, QPel : No
Format settings, GMC : No warppoints
Format settings, Matrix : Default (H.263)
Codec ID : DX50
Codec ID/Hint : DivX 5
Duration : 1h 27mn
Bit rate : 2 000 Kbps
Width : 720 pixels
Height : 528 pixels
Display aspect ratio : 4:3
Frame rate : 25.000 fps
Color space : YUV
Chroma subsampling : 4:2:0
Bit depth : 8 bits
Scan type : Progressive
Compression mode : Lossy
Bits/(Pixel*Frame) : 0.210
Stream size : 1.22 GiB (93%)
Title : NeoVideo92CF
Writing library : DivX 5.0.2 (UTC 2002-05-16)

Audio
ID : 1
Format : MPEG Audio
Format version : Version 1
Format profile : Layer 3
Mode : Joint stereo
Mode extension : MS Stereo
Codec ID : 55
Codec ID/Hint : MP3
Duration : 1h 27mn
Bit rate mode : Constant
Bit rate : 128 Kbps
Channel(s) : 2 channels
Sampling rate : 48.0 KHz
Compression mode : Lossy
Stream size : 80.3 MiB (6%)
Alignment : Split accross interleaves
Interleave, duration : 24 ms (0.60 video frame)
Title : NeoSound92CF0

IDIOMA: Castellano

Sigue el enlace para descargar 

Descargar en el Foro Cine Clásico Conecta2

Cine Clásico Conecta2
¡Haz clic para puntuar esta película!
(Votos: 0 Promedio: 0)
Género: Drama, Romántica
Director:
Año:
Reparto:
Idioma:
Subtítulos:
País:
trasparente
separador
separador



Online  Descargar

Descargar película: Él ( 1952 ) - Luis Buñuel

Para ver las opciones de descarga o ver online, tienes que iniciar sesion / Contraseña: DescargaCineClasico.Net

AudioOpcionesInformaciónCalidadServidor

Ver: Él ( 1952 ) - Luis Buñuel

Película completa online en streaming

AudioOpcionesInformaciónCalidadServidor

DEJA TU COMENTARIO O CRÍTICA DE LA PELÍCULA:

Conectado como (Cerrar Sesion)

Otras búsquedas

Descargar Él ( 1952 ) - Luis Buñuel, ver Él ( 1952 ) - Luis Buñuel online gratis, Subtítulos de Él ( 1952 ) - Luis Buñuel, Torrent Él ( 1952 ) - Luis Buñuel película

ir arriba